WK綜合論壇, WK综合论坛

查看:111 回復:3 發表於 2020-5-23 23:02:54
本主題由 212love 於 2020-5-25 11:30 解除高亮
累計簽到︰2002 天
連續簽到︰3 天
發表於 2020-5-23 08:48:33 | 顯示全部樓層 |閱讀模式
VIP精品區,資源無限好賺金任務區,輕松賺金幣
加入VIP,享受高級特權宣傳賺金又升級,超級棒

寶劍與權杖 The.Warrior.Queen.Of.Jhansi., 2019.[MKV / 6.78G] [複製鏈接]

影視分享
分類: 電影
題材: 劇情 
地區: 英國 
語言: 英语 
格式: MKV 
年份: 2019
資源: BT资源
1.jpg
/ v% l$ d0 Y* K# R& Y: n, \# R; S) Y  ~8 Y
◎译  名 宝剑与权杖 / Swords and Scepters / Swords and Sceptres: The Rani of Jhansi) }2 e: y6 @; Q' N
◎片  名 The Warrior Queen of Jhansi
7 ~7 G: T9 ^7 R* A% T: Q◎年  代 2019
8 P0 Y; K( c1 T& g$ d◎产  地 英国
2 L- V' [$ @8 _' X◎类  别 剧情
. I, _1 T7 a! S8 X% N0 S◎语  言 英语
9 }3 b+ l6 q  f0 f◎上映日期 2019-03-10(温哥华女性电影节)2 K. P$ }. k" N5 o( N2 x
◎IMDb评分 3.5/10 from 245 users2 T' g5 l6 [+ Y: B5 y( W
◎IMDb链接 https://www.imdb.com/title/tt6916348, C: Q! F$ S  V6 ^
◎豆瓣评分 0/10 from 0 users
$ b4 M2 m; f/ g7 L◎豆瓣链接 https://movie.douban.com/subject/27191803/
7 j& q( f- N$ a( j# I8 }◎片  长 103分钟
( v) h- M5 f* V5 X2 P◎导  演 Swati Bhise+ |$ f% a7 P$ G) j% `7 k! W
◎编  剧 Devika Bhise / Swati Bhise / Olivia Emden- ^- k( c1 `1 m- I+ m/ u* ~$ Q6 P
◎主  演 鲁伯特·艾弗雷特 Rupert Everett
  l' r' Q3 s% L6 {2 r# o      德里克·雅各比 Derek Jacobi- F! D4 V: j1 n/ O# S8 k. q
      乔迪·梅 Jodhi May1 p1 C* G2 S' V2 w0 O( V% D/ A( w
      内森奈尔·帕克 Nathaniel Parker& m6 z2 q. }" T- u9 @
      德维卡·贝斯 Devika Bhise
8 p& c( o: k/ g$ x- j      Ben Lamb! v/ w; N9 J0 q9 e: c5 R, K# K

' M$ C7 {, w7 L  j/ c8 r& r
5 m- ?% a% N8 i% e9 W. L◎标  签 印度 | 英国 | 2019年上海国际电影节 | 历史 | DerekJacobi | 剧情 | 2019SIFF | 首选
% W6 r# e- U! {# \2 n: I! q. f, J9 t1 t* _
◎简  介9 ^4 M% Z+ v* {) ?# i( m9 b$ @

  s5 k& t! o( t( u  鲁伯特·艾弗雷特、德里克·雅各比加盟[宝剑与权杖](Swords and Scepters,暂译)。主演德维卡·贝斯、乔迪·梅、内森奈尔·帕克等。印度导演斯瓦蒂·贝斯执导,故事聚焦印度“詹西女王”拉克希米巴伊1857年反抗英国东印度公司的起义行动。艾弗雷特、雅各比分饰休·罗斯爵爷、帕默斯顿勋爵。
% Q$ e9 l( W* D4 |3 z; [. B' K7 ?Video
, q" W- J8 o4 QID : 1
, c7 m: z! F$ b  T( z5 |Format : AVC; o. g$ o) j" S! ~( w) U
Format/Info : Advanced Video Codec1 U# Q( A6 i2 M/ l3 d, h. W
Format profile : [email protected]' d  p" H+ ]' ?, b; }& z/ y4 ?8 |
Format settings : CABAC / 4 Ref Frames5 _7 A+ l  I. e* L9 u
Format settings, CABAC : Yes
0 x" w5 Q( g: E$ B7 {5 ^2 ~! qFormat settings, Reference frames : 4 frames' p5 J! R& t5 C) X7 k: n
Codec ID : V_MPEG4/ISO/AVC* j- l$ S4 ^1 P+ a5 `
Duration : 1 h 42 min- r. `+ a- ~- q) E7 b, ?2 U
Bit rate mode : Constant
2 o3 A+ ^& D+ _& kBit rate : 8 813 kb/s, d( m; ^/ ^3 C$ m! v- O6 t
Nominal bit rate : 10 000 kb/s
& h, D& N4 s( A7 y3 h0 x# RWidth : 1 920 pixels
! q, ?, K( \9 |* x1 L1 gHeight : 800 pixels
9 _9 G& U! c; o" |: wDisplay aspect ratio : 2.40:1( O9 g( G2 o9 X+ U& `
Frame rate mode : Constant% w  a$ V" U8 D. L' r
Frame rate : 23.976 (24000/1001/189150) FPS% R- h# P1 K4 V9 E  O. }
Color space : YUV  P" X6 S( \8 V/ n4 s
Chroma subsampling : 4:2:0
7 Y$ [/ F1 L" P, E- Q% kBit depth : 8 bits
$ X& \' x+ {, l& P2 UScan type : Progressive# A0 r' U% `, g8 n
Bits/(Pixel*Frame) : 0.239( ?4 M; W5 ^! f" m& x
Stream size : 6.32 GiB (93%); c5 y/ \! a& l' D, j- ~' r
Default : Yes
& y7 ~9 Z6 u# [- K6 gForced : No+ ~2 S, ^2 ]4 g: H: Q6 R/ U
Color range : Limited7 i2 e, U, B& k+ z, B8 Z2 ?% H
Color primaries : BT.709
: ^# m. V3 |* X0 w, B5 I3 t" UTransfer characteristics : BT.7091 `  Q2 o2 p$ p" ~& k8 ^
Matrix coefficients : BT.7092 P7 J2 }: J: ~/ Q

- P: |; q  |0 CAudio% l3 U) P1 U9 \7 k; ]7 o- S7 o7 j
ID : 20 S" S$ t) [/ ]( U; }/ D5 F
Format : E-AC-3
8 K6 O1 [& o1 \/ i0 a, ]Format/Info : Enhanced AC-3
, Q8 X4 k% a: s8 X4 O1 TCommercial name : Dolby Digital Plus3 E. e; d6 Y) i" i
Codec ID : A_EAC3: q& U9 g( _! x8 f8 R$ U% x' U1 h! n
Duration : 1 h 42 min% V" ~  ]. {" Z8 K7 X: m
Bit rate mode : Constant; S  @$ U( f5 {* }/ S
Bit rate : 640 kb/s% E* ]2 |& R. Y2 p# d9 i% K' U
Channel(s) : 6 channels+ p& P0 E/ S6 H3 l) }" @
Channel layout : L R C LFE Ls Rs/ R: e* }- E8 A2 e9 ?9 X
Sampling rate : 48.0 kHz: M* t  J5 f* c- }
Frame rate : 31.250 FPS (1536 SPF)5 ^4 O8 Z: Y) R+ G; p5 u6 W" h
Compression mode : Lossy
1 v' O" ^: x  D0 m* Q% DStream size : 470 MiB (7%), ]/ H' g9 D0 N/ ^0 f7 Z
Language : English
6 Z- ]9 s% ]2 b5 f$ [$ F$ |& h( pService kind : Complete Main' G2 t" l1 A( T' I, v+ f) Z
Default : Yes
; v* \* f: \& ]: H# HForced : No
1 L$ D/ U; [6 V& f( P' B
, o' X- N9 v: q' vText #1/ x# z' \# G* n& ?
ID : 3
) X$ L% L; h% _9 uFormat : UTF-80 Y7 }, v& y7 X1 j6 ?! t/ @
Codec ID : S_TEXT/UTF8
; e' p2 f  F, `( N2 mCodec ID/Info : UTF-8 Plain Text" ]: Z0 O# \# {% L& u% d! o; r
Duration : 1 h 35 min9 p/ p/ m: R, S
Bit rate : 46 b/s
* y' }: J2 D% M. bCount of elements : 10406 H2 N: b+ R. m) v) U
Stream size : 33.0 KiB (0%)
6 V$ M/ P9 Q' i+ D; hLanguage : English: O& F2 G' m& W; K1 \! D' Y" t/ u
Default : No
5 U( V: ?: U$ ]Forced : No+ g# @7 u; Y5 ?9 n( w3 F0 o

# \1 L1 c, C8 k/ YText #2
# A! z$ h1 F$ U$ c; a% |" iID : 44 |" z% s9 c, M" v$ p4 T& H
Format : UTF-8  q4 o% p, f) ~: ~1 k
Codec ID : S_TEXT/UTF80 A/ o3 h# `" J7 L( Y
Codec ID/Info : UTF-8 Plain Text
! O% d7 T" S2 m; }- FDuration : 1 h 35 min0 q, b; V/ a& N4 l. d+ i
Bit rate : 53 b/s! B4 O2 `% N& r& V
Count of elements : 1259& m7 ]* r; X( X8 ~# ?
Stream size : 37.4 KiB (0%)! U4 G1 t0 f; l6 s
Title : SDH  m; }' ^0 W/ h% q2 c9 M
Language : English9 K7 g9 i" j' j$ k, }7 h% W+ e3 r
Default : No1 [: s/ X" G5 |  s3 R
Forced : No
6 n# U, N1 N  P: J  b
$ B( m3 l3 @9 J0 w+ C' t, n

9 {1 H& d* }2 g' A# |0 e

寶劍與權杖. MKV.torrent

34.46 KB, 下載次數: 8

累計簽到︰2 天
連續簽到︰1 天
發表於 2020-5-23 09:46:01 | 顯示全部樓層
VIP精品區,資源無限好賺金任務區,輕松賺金幣
加入VIP,享受高級特權宣傳賺金又升級,超級棒
ddddddddddddddddddddddddddddddddddddd
累計簽到︰1245 天
連續簽到︰34 天
發表於 2020-5-23 10:09:10 | 顯示全部樓層
感謝大大的辛勞分享!我會繼續在WK關注大大的文章!
累計簽到︰1 天
連續簽到︰1 天
發表於 2020-5-23 23:02:54 | 顯示全部樓層
Thank you for sharing.

回復樓主 親!! 下午好,中午養足了精神嗎?讓我們一起渡過下午茶時間,WK有您更精彩!

 分享同時學會感恩,一句感謝的話語,就是最大的支持!  歡迎交流討論
您需要登錄後才可以回帖 登錄 | 立即注册

本版積分規則

c重要聲明:本論壇是以即時上載言論的方式運作,WK論壇對所有言論的真實性、立場及版權等,不負任何法律責任。而一切言論只代表發佈者個人意見,並非本網站之立場,讀者及用戶務必自行判斷內容之真實性。 由於本論壇受到「即時上載言論」運作方式所規限,故不能完全監察所有言論,若讀者及用戶發現有內容出現「真實性、立場及版權」等問題,請聯絡我們:[email protected]論壇有權刪除任何言論(刪除前或不會作事先警告及通知)| SiteMap[網站地圖]

發表新帖 返回頂部