WK綜合論壇, WK综合论坛

查看:192 回復:1 發表於 2021-4-9 09:19:06
本主題由 212love 於 6 天前 解除高亮
累計簽到:2126 天
連續簽到:2 天
發表於 2021-4-7 13:13:10 | 顯示全部樓層 |閱讀模式
VIP精品區,資源無限好賺金任務區,輕松賺金幣
加入VIP,享受高級特權宣傳賺金又升級,超級棒

無處可避 Rose., 2020.[MKV / 3.97G] 1080p [複製鏈接]

影視分享
分類: 電影
題材: 恐怖 
地區: 英國 
語言: 英语 
格式: MKV 
年份: 2020
資源: BT资源
1.jpg 3 @! K" P- Y, g+ E* ~3 K. L0 F
+ H: U) d6 r# \; a& C6 d) d# a
◎译  名 无处可避/Rose: A Love Story( A7 s) a. \5 ?& q' O( j& h
◎片  名 Rose
) l4 g( B" ^& s◎年  代 20204 O1 b0 _  O2 r8 |- ]2 F
◎产  地 英国
' A: @0 u' C) |' W◎类  别 恐怖3 g( X2 ~' j5 t. @- Z9 K
◎语  言 英语
# r1 D0 e! ~/ ~9 z◎上映日期 2020-10-13(英国), a; R' s' A6 Q% |  \5 m
◎IMDb评分 7.2/10 from 60 users5 w+ F4 V0 U, ~
◎IMDb链接 https://www.imdb.com/title/tt9643228/
4 ~$ V* s& K2 F6 ?7 m◎豆瓣评分 /10 from 0 users/ L! l. n: l3 O5 m3 ~3 y
◎豆瓣链接 https://movie.douban.com/subject/34607685/" {8 o9 f# |- u& O# h
◎片  长 86分钟
7 K" L1 {! f. l0 U◎编  剧 马特·斯托克 Matt Stokoe
0 k$ g+ [7 g& f◎主  演 苏菲·兰朵 Sophie Rundle  v2 c$ {& T$ m4 J) x% Y& n
      内森·麦克伦 Nathan McMullen( _( i. r! A6 }3 V: e
      马特·斯托克 Matt Stokoe
" X6 `% M, w, Q. M. P; m4 `      奥利维亚·格兰特 Olivia Grant  J  {! v; J5 E) W; F

1 e& \/ |% i8 i◎标  签 英国电影 | 苏菲兰格 | 恐怖
$ J; z8 G. Q" J+ v) I( w! j8 y* s$ j0 x! g7 [* Q
◎简  介 3 C6 T2 u# ?& \6 K

5 s% u& d2 T. h) a* `- }. i: [8 X- f  Gripped by a violent, terrifying illness, Rose lives in seclusion with her husband, but the arrival of a stranger shatters the fragile refuge they have built.
/ K, ]: y. F  f9 T# p
2 M5 f) q, ~7 F/ i8 y◎获奖情况0 P4 M: u' i1 [" K1 p
9 q8 h: m* C/ J9 m+ ?
  第23届英国独立电影奖 ?(2020)' ]7 i8 D7 x, u+ \, r
  瑞丹斯奖(提名)
' i, y: c, w1 {! l; \% m! P& @Video
* L! |& Z% x1 `# k" ]ID : 1
/ B! b) @0 u3 e; ?9 N* P& S) DFormat : AVC; p9 N/ I; j$ s; a, I, y
Format/Info : Advanced Video Codec
* X. @1 L, K2 t9 I# J0 nFormat profile : [email protected]
) L) ]! m9 z. T% c$ W' ^Format settings : CABAC / 4 Ref Frames
! `5 R( [; g: I6 SFormat settings, CABAC : Yes- H4 F9 j5 o& N% I+ c
Format settings, Reference frames : 4 frames, x6 e4 I1 d# j4 d
Codec ID : V_MPEG4/ISO/AVC; [  _9 T/ D- R* ?% Y# G
Duration : 1 h 26 min
$ T- t6 h/ N! y. h$ o' QBit rate mode : Constant
- ~% F! [& [6 k( GBit rate : 5 926 kb/s
7 V6 r# I, o1 c; ^9 K2 m3 n0 uNominal bit rate : 10 000 kb/s
- }: T1 q, I. y. z: N" rWidth : 1 920 pixels9 Y( w5 |% f- X3 A
Height : 1 080 pixels  a# U; F! y4 n) E( f7 `
Display aspect ratio : 16:9$ t2 v3 A& y6 e* V; ~
Frame rate mode : Constant
- b, O' [& S# J/ @Frame rate : 24.000 FPS
+ R" X- d2 E  _6 MColor space : YUV8 x8 s: P) D# b0 A; v) w
Chroma subsampling : 4:2:0& T6 n9 n* I8 `$ Z0 V6 u3 [7 g/ y1 v! s' N
Bit depth : 8 bits+ ^8 p' |, O8 X) P$ {" B4 l5 k0 x5 v% n
Scan type : Progressive
* K. I3 g8 w1 _: Y9 DBits/(Pixel*Frame) : 0.119* b: |/ {, R# T- U
Stream size : 3.58 GiB (90%)& [% t7 P3 y2 G6 }
Default : Yes* J/ w5 N+ e% y2 a$ Z7 T
Forced : No7 l( T3 k3 e) E, J2 K% k0 x3 ?  z
Color range : Limited1 d; j- Q! P/ s- H/ Z
Color primaries : BT.709( W0 }7 {5 d# q, x/ M1 F! ^( s: G
Transfer characteristics : BT.709
/ H0 ]* G. t- T. p  yMatrix coefficients : BT.709% O5 \4 r9 p0 v) I+ F& y8 R; C7 R
! @$ R1 w/ L: O5 M1 Y; a
Audio7 E/ ]  V, |4 p+ x4 x$ j6 v
ID : 2
+ h7 M: Y( W& f9 x2 a9 FFormat : E-AC-3
( r) |: R  o: J+ K1 n2 f5 J3 U8 J) AFormat/Info : Enhanced AC-3
) V5 }( i/ S/ l: F1 y6 aCommercial name : Dolby Digital Plus7 \: s- b6 a, b5 L
Codec ID : A_EAC3+ \' B' I- {; ^4 _
Duration : 1 h 26 min- @7 V- |9 H" L' }! n7 E# M) r4 P
Bit rate mode : Constant0 L$ t  y8 {3 Q4 R9 @  v
Bit rate : 640 kb/s: D- f) Z% z, b
Channel(s) : 6 channels) o3 C' l  f7 O: h- |
Channel layout : L R C LFE Ls Rs
/ T3 ]3 n+ \7 r+ W. _+ R$ W; jSampling rate : 48.0 kHz
% w) t. i) X* Z4 T0 YFrame rate : 31.250 FPS (1536 SPF)8 ^' P7 T1 u9 f2 \  u; m
Compression mode : Lossy
- b, U6 G! z& t" v1 p7 J$ V; UStream size : 396 MiB (10%)1 f8 Y" j) B) D2 {5 g. C' [
Language : English5 c6 N$ N  H+ q+ O6 L
Service kind : Complete Main# m. A# C: n* ]
Default : Yes- t* ~: t% A3 T! H
Forced : No
  V9 S1 I. p/ n* D' Y0 r) D% H; J
( @8 U, f1 G6 }6 _) A4 L

無處可避 MKV.torrent

40.18 KB, 下載次數: 28

本帖點贊的會員︰

累計簽到:1034 天
連續簽到:132 天
發表於 2021-4-9 09:19:06 | 顯示全部樓層
VIP精品區,資源無限好賺金任務區,輕松賺金幣
加入VIP,享受高級特權宣傳賺金又升級,超級棒
辛苦了版主,謝謝您無私分享

回復樓主 親!! 現在是淩晨!妳失眠啦?餓啦?通宵加班?還是想WK啦?

 分享同時學會感恩,一句感謝的話語,就是最大的支持!  歡迎交流討論
您需要登錄後才可以回帖 登錄 | 立即注册

本版積分規則

c重要聲明:本論壇是以即時上載言論的方式運作,WK論壇對所有言論的真實性、立場及版權等,不負任何法律責任。而一切言論只代表發佈者個人意見,並非本網站之立場,讀者及用戶務必自行判斷內容之真實性。 由於本論壇受到「即時上載言論」運作方式所規限,故不能完全監察所有言論,若讀者及用戶發現有內容出現「真實性、立場及版權」等問題,請聯絡我們:[email protected]論壇有權刪除任何言論(刪除前或不會作事先警告及通知)| SiteMap[網站地圖]

發表新帖 返回頂部