WK綜合論壇, WK综合论坛

查看:175 回復:1 發表於 2020-10-18 07:28:57
本主題由 212love 於 前天 16:55 刪除回復
累計簽到︰2095 天
連續簽到︰2 天
發表於 2020-10-17 12:44:46 | 顯示全部樓層 |閱讀模式
VIP精品區,資源無限好賺金任務區,輕松賺金幣
加入VIP,享受高級特權宣傳賺金又升級,超級棒

停屍房收藏/殡仪馆收藏 The.Mortuary.Collection, 2019.[MKV / 6.19G] [複製鏈接]

影視分享
分類: 電影
題材: 恐怖 
地區: 美國 
語言: 英语 
格式: MKV 
年份: 2019
資源: BT资源
2.png # M8 b! F) R/ r9 ^
2 t, H8 L( Z) ^4 S1 a
◎译  名 停尸房收藏/殡仪馆收藏
2 z, E$ r) J: ~7 K" X◎片  名 The Mortuary Collection
5 v; H; k9 `" L! [! o: g◎年  代 20190 z  r% V" p8 V$ E
◎产  地 美国
/ \6 ^1 B; X2 `" S8 w◎类  别 恐怖
, X& h  }8 d- w# T+ g◎语  言 英语
0 J: c! m/ y; l+ f- `/ Q! Z* E◎上映日期 2019-09-21(奇幻影展) / 2020-10-15(美国)
& \: k" ]/ E" n' h◎IMDb评分 6.8/10 from 265 users
3 x0 a% w* P0 g! j+ Y( D6 H# \3 L◎IMDb链接 https://www.imdb.com/title/tt7781432/
6 h% `. e0 I5 W$ y. @◎豆瓣评分 /10 from 0 users
# E5 ]" L6 A) b% G* P+ ^6 ?5 R$ a+ `8 ?◎豆瓣链接 https://movie.douban.com/subject/30257386/! Y' s9 h) S  |
◎片  长 108分钟3 S% Y$ o% U6 X. L
◎导  演 瑞恩·斯宾德尔 Ryan Spindell5 P2 H) Y! O! Y  b" K. d
◎编  剧 瑞恩·斯宾德尔 Ryan Spindell2 p, u" v: V1 T+ g. j4 w3 @8 S1 h! D
◎主  演 凯特琳·卡斯特 Caitlin Custer
) u1 E  @/ N, A5 b( A( D      克里斯汀·基默 Christine Kilmer
  r, c: z0 g, w! Y2 d6 w( ~' `0 O      雅各布·艾洛蒂 Jacob Elordi
# K+ O5 f  `+ h( ?( s* l& W      艾玛·霍瓦特 Ema Horvath3 V! S( p1 O/ ^- i1 Y
      珍妮弗·厄文 Jennifer Irwin9 `8 i3 v9 c" P0 [  a1 i; A# w
      詹姆斯·巴克曼 James Bachman* u- _4 i2 k$ G$ ]) N
      巴拉克·哈德利 Barak Hardley! @8 A8 f, y: c5 q  t( R9 b  a
      莎拉·海伊 Sarah Hay
3 ?; B- q  i) V, T      迈克·C·尼尔森 Mike C. Nelson
' [  ]& q9 l+ j( i      汤姆·伍德鲁夫 Tom Woodruff Jr.
1 W7 c/ }. r6 ]# d5 p      伊登·坎贝尔 Eden Campbell
8 Q. F) n2 e; {& e' a- `$ i$ g6 X3 _& d      迈克尔·鲍 Michael Bow
1 u8 I- b- e' i5 F& J6 {- W* q7 i4 z/ r4 q
◎标  签 恐怖 | 惊悚 | 美国 | 灵异 | 奇幻 | 美国电影 | 2019 | 魔幻
. w+ T5 t; v! s  o- K6 s4 w0 D
' P, R+ t! [6 i# ?; }( U◎简  介
# I8 _" t6 o1 p2 s7 q. f4 c8 }( m6 F: `1 |# ?8 z
  讲述少女走进一间古老的停尸房,管理员老人有很多跟尸体和死亡有关的收藏,他带女孩回顾1950-1980年代四起死亡的秘密,曾经和现在,可怕的事发生……
9 y6 U! Q! G! v6 S3 j* Y0 WVideo
% Q* @/ x* O7 L8 a. b% `ID : 12 g9 ~% V% b5 C! D1 C/ B
Format : AVC
7 B3 F& c  B6 D$ I4 J& jFormat/Info : Advanced Video Codec- ^6 ^) _2 [* }' S
Format profile : [email protected]
8 ^+ o$ p& m* ]6 e! L9 ~Format settings : CABAC / 4 Ref Frames
* A2 t" e2 }2 ^; ~  U; R2 \4 xFormat settings, CABAC : Yes
4 c! A3 W0 J0 B- a! yFormat settings, Reference frames : 4 frames
% ~3 M; g+ o$ i! D" l# e5 u" {Codec ID : V_MPEG4/ISO/AVC
7 {; {' M/ F0 t: FDuration : 1 h 50 min
. A& @7 ?0 e1 F2 `" ?: gBit rate mode : Constant$ C( C% A4 m( G6 r+ N' l
Bit rate : 7 762 kb/s
, T' ^, k  Y% ?+ _( \0 d( @Nominal bit rate : 10 000 kb/s% k1 C9 F  \+ M; h. d
Width : 1 920 pixels/ J/ A. A  Y' g# U
Height : 1 080 pixels
4 `' a' t6 r- Y* Q- V9 Z* Y  lDisplay aspect ratio : 16:9
' `& R& i, T$ u# N' kFrame rate mode : Constant2 G/ Y+ `& q1 d- @+ |
Frame rate : 24.000 FPS
. d; a( p: A0 S7 mColor space : YUV
! f5 F# j; g0 hChroma subsampling : 4:2:0
% f: o" S0 [) wBit depth : 8 bits  Z( b; G# P$ }: O( m
Scan type : Progressive$ Z* P) X! O% @% u8 I- D2 o
Bits/(Pixel*Frame) : 0.156
* ~$ \5 e; t" ~; r; fStream size : 6.01 GiB (97%)
6 x9 N7 |: M: X) HDefault : Yes0 d% e4 F8 o- D
Forced : No
% a# O  }0 D0 l. IColor range : Limited8 w. q8 ?8 a! q, N! l0 h
Color primaries : BT.709
  p. U4 ]: ^9 M3 RTransfer characteristics : BT.709
0 s" A4 |3 g& \( cMatrix coefficients : BT.709
4 \& R5 [! ^6 W0 g. G
* [5 j8 j( i5 P9 o+ X% B; }4 HAudio- }# C$ r, _9 P& w  V1 [
ID : 2
8 g7 C! q  L) K+ f8 l% S$ V& JFormat : E-AC-3; `. V$ b7 ^3 H" h, O' S
Format/Info : Enhanced AC-34 D# V! J' ]0 S3 {( H0 R% b9 z$ S
Commercial name : Dolby Digital Plus
' I# x1 I# c6 u# T( I: |Codec ID : A_EAC3
3 X. v! f5 g9 f5 s$ U- o! w+ }Duration : 1 h 50 min% H9 A) |" @# {* e- p! _, Q0 q
Bit rate mode : Constant) M9 s5 I' B' h' ?( Z# a. ^6 t! e
Bit rate : 224 kb/s5 r( i7 v+ e/ ~1 \' _
Channel(s) : 2 channels
7 R* ~& N* U) m8 r  B6 K! a; N0 rChannel layout : L R
! n$ \8 p# |" B4 YSampling rate : 48.0 kHz
9 ^% D1 ?" k/ C0 S7 r4 XFrame rate : 31.250 FPS (1536 SPF): a* G" Y, ]) W# r+ U7 q6 G7 d
Compression mode : Lossy+ w* X$ h8 J; N9 [6 u, B& o
Stream size : 178 MiB (3%)
, J4 q' f9 l+ A; J, MLanguage : English
" [  q) E% Y- h4 D. ~# F  q; uService kind : Complete Main
* {; U9 }4 M1 l' ~3 V/ TDefault : Yes
9 ?7 z# L/ ]% F& k- i% j: ^/ kForced : No3 Q3 |3 g  D/ [7 i1 C
# S! W! Z, a! e! D  J: p. e
Text, v1 {9 Q/ Z% e" B4 R" `1 x  S
ID : 3
, P8 H- Z7 Q) h- oFormat : UTF-8
3 `. m6 E! W: ]Codec ID : S_TEXT/UTF8
! L4 R1 k$ [  ]  T6 V# yCodec ID/Info : UTF-8 Plain Text
2 k/ T6 X3 d! Y! `8 `+ J# U/ KDuration : 1 h 50 min
# ^" o) ?/ g, p& ]Bit rate : 38 b/s- p3 D0 v6 W/ U& r. C0 t, B
Count of elements : 1382* \3 p+ [7 `6 t% a5 L- z- r! S
Stream size : 31.4 KiB (0%)
5 }& t5 G# x/ x2 fTitle : SDH
, b7 J/ Y" q1 ?/ x. B" ~, MLanguage : English
; s+ R+ v* i( E3 x5 R) M3 sDefault : No0 t; x7 b* u1 ]
Forced : No

6 z8 V: j9 n- M9 p9 ]
: A, o5 J* H4 I# h! K5 T8 a
5 @6 {" A2 Y4 M7 z  X

停屍房收藏. MKV.torrent

31.48 KB, 下載次數: 40

累計簽到︰1 天
連續簽到︰1 天
發表於 2020-10-18 07:28:57 | 顯示全部樓層
VIP精品區,資源無限好賺金任務區,輕松賺金幣
加入VIP,享受高級特權宣傳賺金又升級,超級棒
中文字幕
8 U+ N* s9 X: g7 B# n. @ 停尸房收藏.The.Mortuary.Collection.2019.1080p.AMZN.WEBRip.DDP2.0.x264-NTG.ass (130.24 KB, 下載次數: 5)

回復樓主 親!! 早上好! 心底有WK、心情就會飛翔,心中要個希望、笑容就會清爽!

 分享同時學會感恩,一句感謝的話語,就是最大的支持!  歡迎交流討論
您需要登錄後才可以回帖 登錄 | 立即注册

本版積分規則

c重要聲明:本論壇是以即時上載言論的方式運作,WK論壇對所有言論的真實性、立場及版權等,不負任何法律責任。而一切言論只代表發佈者個人意見,並非本網站之立場,讀者及用戶務必自行判斷內容之真實性。 由於本論壇受到「即時上載言論」運作方式所規限,故不能完全監察所有言論,若讀者及用戶發現有內容出現「真實性、立場及版權」等問題,請聯絡我們:[email protected]論壇有權刪除任何言論(刪除前或不會作事先警告及通知)| SiteMap[網站地圖]

發表新帖 返回頂部