WK綜合論壇, WK综合论坛

查看:103 回復:3 發表於 2020-5-23 23:02:54
本主題由 212love 於 2020-5-25 11:30 解除高亮
累計簽到︰2000 天
連續簽到︰1 天
發表於 2020-5-23 08:48:33 | 顯示全部樓層 |閱讀模式
VIP精品區,資源無限好賺金任務區,輕松賺金幣
加入VIP,享受高級特權宣傳賺金又升級,超級棒

寶劍與權杖 The.Warrior.Queen.Of.Jhansi., 2019.[MKV / 6.78G] [複製鏈接]

影視分享
分類: 電影
題材: 劇情 
地區: 英國 
語言: 英语 
格式: MKV 
年份: 2019
資源: BT资源
1.jpg
6 R$ ^4 J( P' C( W( F/ @! a# `2 }9 V, a; |
◎译  名 宝剑与权杖 / Swords and Scepters / Swords and Sceptres: The Rani of Jhansi
# [. C. y2 W+ o/ s  n  F- x, z◎片  名 The Warrior Queen of Jhansi
/ J/ o5 F& y% T) f: @7 {* z◎年  代 2019
- x3 y# u5 R! X# _6 N$ z/ e# F" L5 v◎产  地 英国8 B  y8 @5 ?3 b7 M1 M3 K
◎类  别 剧情$ ~# @& A9 P& C4 \0 a, Q! c2 P
◎语  言 英语, C, O4 k7 U/ @4 a
◎上映日期 2019-03-10(温哥华女性电影节)! U! @$ k8 d. p8 L$ Y1 d
◎IMDb评分 3.5/10 from 245 users3 e5 ^6 ]6 x: r  W
◎IMDb链接 https://www.imdb.com/title/tt6916348. f) P# J5 x" w0 [
◎豆瓣评分 0/10 from 0 users5 B7 U4 r/ p4 n7 O8 K6 k/ K/ e0 M& |
◎豆瓣链接 https://movie.douban.com/subject/27191803/8 w* B; [; C% z( C- c2 K% ]2 T
◎片  长 103分钟3 Z8 }6 P/ X4 a$ b8 h6 p5 H% P/ {
◎导  演 Swati Bhise
  ]7 r  M* U/ G: r9 p# b$ c◎编  剧 Devika Bhise / Swati Bhise / Olivia Emden
# A6 O: Q1 r9 X- O  n5 l0 {, H◎主  演 鲁伯特·艾弗雷特 Rupert Everett
" k7 ^5 B6 z3 f, j5 j* i! T      德里克·雅各比 Derek Jacobi
7 D0 H2 r' Z, w' d6 F4 j2 j  i$ A8 e, C      乔迪·梅 Jodhi May- Y& W$ a$ Q7 d! J- Y
      内森奈尔·帕克 Nathaniel Parker5 _8 |. \1 P/ v" E6 Q
      德维卡·贝斯 Devika Bhise7 ~& B" e3 l) p9 s! `
      Ben Lamb
- W1 Z! ~, r% O( j
7 F4 G; P+ H0 B) n& w
8 T! A7 Y; W* o" _  @+ t◎标  签 印度 | 英国 | 2019年上海国际电影节 | 历史 | DerekJacobi | 剧情 | 2019SIFF | 首选: s& m+ L9 ?2 n5 P- l  C9 R
7 H8 x1 s" b5 ]2 j1 r9 K. U
◎简  介
1 M! k: |$ N" `4 H. a
$ |! h9 h% `: F! X; @. C  鲁伯特·艾弗雷特、德里克·雅各比加盟[宝剑与权杖](Swords and Scepters,暂译)。主演德维卡·贝斯、乔迪·梅、内森奈尔·帕克等。印度导演斯瓦蒂·贝斯执导,故事聚焦印度“詹西女王”拉克希米巴伊1857年反抗英国东印度公司的起义行动。艾弗雷特、雅各比分饰休·罗斯爵爷、帕默斯顿勋爵。1 O$ X- l" L) S' s9 ^( t  Q
Video' r  k6 C( F1 z" U1 f3 W; y$ [
ID : 10 C# H! k4 z/ ^. U  ^
Format : AVC
7 x+ h! ^: [5 @3 XFormat/Info : Advanced Video Codec: `8 T+ S% P1 K- t+ G9 ^0 L
Format profile : [email protected]4 H. L' b  M7 J1 L
Format settings : CABAC / 4 Ref Frames
% O8 t- u) e" C9 WFormat settings, CABAC : Yes, d4 ~; n3 t$ D
Format settings, Reference frames : 4 frames5 i( ]" @$ V: q" m
Codec ID : V_MPEG4/ISO/AVC9 w2 @, x8 l/ C( D* l3 h
Duration : 1 h 42 min
; D9 l8 G# H7 gBit rate mode : Constant! e& K/ a: E+ P2 O
Bit rate : 8 813 kb/s
# _% F! W* r8 @! K! Z9 |! |2 x! S/ uNominal bit rate : 10 000 kb/s
8 W& e# K' L1 x6 L" ^Width : 1 920 pixels
+ T& n/ T2 h" q- PHeight : 800 pixels/ P& t9 N7 d0 u7 P. f7 f3 p% @# n
Display aspect ratio : 2.40:1
% e1 c. C  ?& n8 u3 i7 aFrame rate mode : Constant
4 x8 y$ c! P8 EFrame rate : 23.976 (24000/1001/189150) FPS$ }+ b) _: h1 F: Q3 p2 s4 U5 P+ H
Color space : YUV
8 O9 @& n2 E5 J$ Z( A$ ]Chroma subsampling : 4:2:0
8 ~9 W( ^6 V+ K* m3 T3 W/ a6 JBit depth : 8 bits  x# _+ o' k9 w1 V
Scan type : Progressive# y6 K; h* J+ y: c
Bits/(Pixel*Frame) : 0.239
5 }4 C. D6 J! ]0 \5 Y" c2 ]Stream size : 6.32 GiB (93%)3 k9 B0 y) |8 B% }# i& {7 C4 Y
Default : Yes) J/ c5 z" a3 D7 u, J
Forced : No
4 i$ N3 S6 J7 WColor range : Limited
6 x/ r) c0 y" t5 t) r8 m5 bColor primaries : BT.7095 |# {% ]; |# r: P
Transfer characteristics : BT.709; r' g9 D7 m  o
Matrix coefficients : BT.709/ T2 X! W# I+ [" e$ V2 `+ c2 D

% _, v/ g- y2 E; u: lAudio' b, A" ]$ j( z# E) C  ]; u
ID : 2
4 }. t4 Z$ m* _Format : E-AC-3
* P% d% C; L0 O* V+ BFormat/Info : Enhanced AC-3
7 f+ @) F0 Q" F) l# DCommercial name : Dolby Digital Plus
2 {+ }0 B' E' m' D, d: [% dCodec ID : A_EAC3! m5 t1 N+ ]) Z3 q8 T- y4 S5 u
Duration : 1 h 42 min: j- B4 H6 G: i/ j
Bit rate mode : Constant. G9 P! Y0 M; B" R
Bit rate : 640 kb/s5 K. D. q- b& R% s. U9 c
Channel(s) : 6 channels
, x* B$ u: z3 Q( lChannel layout : L R C LFE Ls Rs
+ c- @) n7 i: A# J" u+ \5 |0 nSampling rate : 48.0 kHz9 X6 O( t, c, y9 R
Frame rate : 31.250 FPS (1536 SPF)
- y4 E% C7 \; b6 L2 a& h9 SCompression mode : Lossy
9 }9 V9 }$ Y! q) m4 N8 y6 E" MStream size : 470 MiB (7%)
+ o5 S, w" m5 o. q0 H' k* k  i7 t  I5 Q6 YLanguage : English6 I3 T2 |% K  o3 W8 _
Service kind : Complete Main
1 w* ^- m. `  E5 vDefault : Yes
* B: z& j$ B# n7 {' W2 s; g3 t: OForced : No' Y( |6 Q6 f8 z, l

- o( t0 Z# v6 }4 j% sText #1, t' W. V3 M3 Y2 @
ID : 3
* N7 h  a( w: B2 oFormat : UTF-88 x& |: o, H1 R) Z
Codec ID : S_TEXT/UTF8% j3 m4 g/ j  y  Z: G
Codec ID/Info : UTF-8 Plain Text/ k% E! o) p* s# @/ o4 C& c
Duration : 1 h 35 min# ~8 D7 {4 y/ ~  y5 ?" t
Bit rate : 46 b/s
/ |  G0 }, A' g1 @. HCount of elements : 1040
& P3 z, w9 O/ L& `Stream size : 33.0 KiB (0%)& G0 ?; r7 q2 ^
Language : English* c% i' v1 a8 f" R1 d
Default : No! I6 \9 s" y$ V: I
Forced : No+ ]4 L: b  J; A! k. ^. F

) |8 S! w. v: v% GText #2) n( J0 {3 y6 d& y
ID : 4
9 y# W$ r7 w$ }: M- V  a6 u/ [  xFormat : UTF-8, N# K2 j/ y7 s  G4 x) T) R
Codec ID : S_TEXT/UTF8' i& ]* G, K4 v" [0 i* \3 w' L
Codec ID/Info : UTF-8 Plain Text) y! C2 s$ r2 Y1 r1 L
Duration : 1 h 35 min1 n$ P; O. {2 H8 o, a0 a' G
Bit rate : 53 b/s. E3 B( ^. a0 v+ g
Count of elements : 1259
( m" u/ e. T+ r& LStream size : 37.4 KiB (0%)
5 M) h' I% ^  q% `; S8 ]% a) ~( ATitle : SDH) N; M# o/ _, P- E
Language : English
! N+ L9 u: |$ M/ r9 CDefault : No
! c$ @0 i' x- \& K/ W5 }3 P/ YForced : No
1 V2 Z2 D2 c- r7 \" b6 y

- @6 G+ [; g, Q$ A0 W, n. N7 k; R- N3 P+ U" j

寶劍與權杖. MKV.torrent

34.46 KB, 下載次數: 8

累計簽到︰2 天
連續簽到︰1 天
發表於 2020-5-23 09:46:01 | 顯示全部樓層
VIP精品區,資源無限好賺金任務區,輕松賺金幣
加入VIP,享受高級特權宣傳賺金又升級,超級棒
ddddddddddddddddddddddddddddddddddddd
累計簽到︰1243 天
連續簽到︰32 天
發表於 2020-5-23 10:09:10 | 顯示全部樓層
感謝大大的辛勞分享!我會繼續在WK關注大大的文章!
累計簽到︰1 天
連續簽到︰1 天
發表於 2020-5-23 23:02:54 | 顯示全部樓層
Thank you for sharing.

回復樓主 親!! 下午好,中午養足了精神嗎?讓我們一起渡過下午茶時間,WK有您更精彩!

 分享同時學會感恩,一句感謝的話語,就是最大的支持!  歡迎交流討論
您需要登錄後才可以回帖 登錄 | 立即注册

本版積分規則

c重要聲明:本論壇是以即時上載言論的方式運作,WK論壇對所有言論的真實性、立場及版權等,不負任何法律責任。而一切言論只代表發佈者個人意見,並非本網站之立場,讀者及用戶務必自行判斷內容之真實性。 由於本論壇受到「即時上載言論」運作方式所規限,故不能完全監察所有言論,若讀者及用戶發現有內容出現「真實性、立場及版權」等問題,請聯絡我們:[email protected]論壇有權刪除任何言論(刪除前或不會作事先警告及通知)| SiteMap[網站地圖]

發表新帖 返回頂部